Загрузка...



   [ 1 сообщение ] 
Статистика раздачи
Размер: 3.67 ГБ | Добавлен: 10 фев 2017, 23:52 | Скачали: 1
Сидеров: 9  [0 байт/сек]    Личеров: 0  [0 байт/сек]
<< Пред. тема След. тема >>  
Автор

СообщениеДобавлено: 10 фев 2017, 23:52 

Не в сети
Администратор
Администратор
Аватара пользователя
Пол: Не указан
Раздал: 40.9 ГБ
Скачал: 1.45 ГБ

Стаж: 5 лет 6 месяцев 9 дней
Заслуженная репутация: 30
ПользовательПользователь
Дни Искушения / Last Days in the Desert

-


Год выпуска
: 2015
Страна
: США
Жанр: драма, приключения, история
Продолжительность: 01:39:42
Перевод: Дублированный [iTunes]
Субтитры: English
Режиссер: Родриго Гарсия
Сценарий: Родриго Гарсия
Продюсер: Бонни Кертис, Джули Линн, Уикс Уолкер
Оператор: Эммануэль Любецки
Композитор: Дэнни Бенси, Сондер Юрриаанс
Художник: Джаннин Оппуолл, Джон ДеМео, Джудианна Маковски
Монтаж: Мэтт Мэддокс
В ролях: Юэн МакГрегор / Ewan McGregor (Jesus), Киран Хайндс / Ciarán Hinds (Father), Айелет Зурер / Ayelet Zurer (Mother), Тай Шеридан / Tye Sheridan (Son), Сьюзэн Грэй / Susan Gray (Demonic Woman)



Описание: Иисус держит путь через пустыню, проводя сорок дней за молитвой и постом. На своем пути он борется с Искусителем за судьбу простой семьи и проходит испытание земными страстями.


Качество: WEB-DL 1080p
Формат: MKV
Видео кодек: AVC
Аудио кодеk: AC3
Видео: 1916x796 (2.40:1), 23.976 fps, AVC, 4 402 Kbps
Аудио: Аудио #1: AC3, 384 Kbps, 48.0 KHz, 6 ch [Rus]
Аудио #2: AC3, 384 Kbps, 48.0 KHz, 6 ch [Eng]



Код:
General
Unique ID                                : 255149364877025632219942745952265670301 (0xBFF3FAEF186606F6B9CFA5512CC78E9D)
Complete name                            : Last.Days.in.the.Desert.2015.1080p.WEB-DL.DD5.1.H264.mkv
Format                                   : Matroska
Format version                           : Version 4 / Version 2
File size                                : 3.67 GiB
Duration                                 : 1h 39mn
Overall bit rate                         : 5 275 Kbps
Movie name                               : DENZEL519
Encoded date                             : UTC 2017-02-10 16:05:07
Writing application                      : mkvmerge v9.8.0 ('Kuglblids') 64bit
Writing library                          : libebml v1.3.4 + libmatroska v1.4.5
DURATION                                 : 01:27:31.278000000
NUMBER_OF_FRAMES                         : 487
NUMBER_OF_BYTES                          : 14673
_STATISTICS_WRITING_APP                  : mkvmerge v9.8.0 ('Kuglblids') 64bit
_STATISTICS_WRITING_DATE_UTC             : 2017-02-10 16:05:07
_STATISTICS_TAGS                         : BPS DURATION NUMBER_OF_FRAMES NUMBER_OF_BYTES

Video
ID                                       : 2
Format                                   : AVC
Format/Info                              : Advanced Video Codec
Format profile                           : High@L4.0
Format settings, CABAC                   : Yes
Format settings, ReFrames                : 5 frames
Codec ID                                 : V_MPEG4/ISO/AVC
Duration                                 : 1h 39mn
Bit rate                                 : 4 402 Kbps
Width                                    : 1 916 pixels
Height                                   : 796 pixels
Display aspect ratio                     : 2.40:1
Frame rate mode                          : Constant
Frame rate                               : 23.976 fps
Color space                              : YUV
Chroma subsampling                       : 4:2:0
Bit depth                                : 8 bits
Scan type                                : Progressive
Bits/(Pixel*Frame)                       : 0.120
Stream size                              : 3.07 GiB (83%)
Title                                    : Last.Days.in.the.Desert.2015.1080p.WEB-DL.DD5.1.H264-RARBG
Language                                 : English
Default                                  : Yes
Forced                                   : No
Color primaries                          : BT.709
Transfer characteristics                 : BT.709
Matrix coefficients                      : BT.709

Audio #1
ID                                       : 1
Format                                   : AC-3
Format/Info                              : Audio Coding 3
Mode extension                           : CM (complete main)
Format settings, Endianness              : Big
Codec ID                                 : A_AC3
Duration                                 : 1h 39mn
Bit rate mode                            : Constant
Bit rate                                 : 384 Kbps
Channel(s)                               : 6 channels
Channel positions                        : Front: L C R, Side: L R, LFE
Sampling rate                            : 48.0 KHz
Bit depth                                : 16 bits
Compression mode                         : Lossy
Stream size                              : 274 MiB (7%)
Title                                    : iTunes
Language                                 : Russian
Default                                  : Yes
Forced                                   : No

Audio #2
ID                                       : 3
Format                                   : AC-3
Format/Info                              : Audio Coding 3
Mode extension                           : CM (complete main)
Format settings, Endianness              : Big
Codec ID                                 : A_AC3
Duration                                 : 1h 39mn
Bit rate mode                            : Constant
Bit rate                                 : 384 Kbps
Channel(s)                               : 6 channels
Channel positions                        : Front: L C R, Side: L R, LFE
Sampling rate                            : 48.0 KHz
Bit depth                                : 16 bits
Compression mode                         : Lossy
Stream size                              : 274 MiB (7%)
Title                                    : Last.Days.in.the.Desert.2015.1080p.WEB-DL.DD5.1.H264-RARBG
Language                                 : English
Default                                  : No
Forced                                   : No

Text
ID                                       : 4
Format                                   : UTF-8
Codec ID                                 : S_TEXT/UTF8
Codec ID/Info                            : UTF-8 Plain Text
Language                                 : English
Default                                  : Yes
Forced                                   : No

Menu
00:00:00.000                             : en:Chapter 1
00:06:15.000                             : en:Chapter 2
00:10:21.000                             : en:Chapter 3
00:14:02.000                             : en:Chapter 4
00:19:48.000                             : en:Chapter 5
00:23:06.000                             : en:Chapter 6
00:27:48.000                             : en:Chapter 7
00:32:25.000                             : en:Chapter 8
00:38:52.000                             : en:Chapter 9
00:44:01.000                             : en:Chapter 10
00:49:34.000                             : en:Chapter 11
00:55:28.000                             : en:Chapter 12
01:00:56.000                             : en:Chapter 13
01:05:35.000                             : en:Chapter 14
01:14:00.000                             : en:Chapter 15
01:21:54.000                             : en:Chapter 16
01:30:34.000                             : en:Chapter 17
01:33:49.000                             : en:Chapter 18


Премьера (мир): 25 января 2015
Рейтинг MPAA: Детям до 13 лет просмотр не желателен



Время раздачи: 24/7 (до появления первых 3-5 скачавших)


 Оценка темы: Оценок: 0, 0.00 средний балл.Оценок: 0, 0.00 средний балл.Оценок: 0, 0.00 средний балл.Оценок: 0, 0.00 средний балл.Оценок: 0, 0.00 средний балл.Оценок: 0, 0.00 средний балл.Оценок: 0, 0.00 средний балл.Оценок: 0, 0.00 средний балл.Оценок: 0, 0.00 средний балл.Оценок: 0, 0.00 средний балл. 

Торрент:  10 фев 2017, 23:52 [10 фев 2017, 23:52]
Скачать торрент

Кем проверен:
Проверен 
Размер:  3.67 ГБ
Скачиваний:  1
Здоровье: 100%
Поблагодарили:  1 (список)
Если понравилась тема «поделитесь» в соцсетях:

_________________
Голосуй за нас!


  
Ответить с цитатой  
Показать сообщения за:  Поле сортировки  
 [ 1 сообщение ] 

   Похожие торренты   Автор   Ответы   Просмотры   Последнее сообщение 
В этой теме нет новых непрочитанных сообщений. В сердце моря / In the Heart of the Sea (Рон Ховард) [2015, боевик, триллер, драма, приключения, биография, история, BDRip 1080p] [iTunes]

в форуме BDRip, Размер: 12.55 ГБ, Здоровье: 0%

genn

0
0|0

44
1

05 мар 2016, 21:51

genn Перейти к последнему сообщению

В этой теме нет новых непрочитанных сообщений. В сердце моря / In the Heart of the Sea (Рон Ховард) [2015, боевик, триллер, драма, приключения, биография, история, BDRip 1080p][HEVC][iTunes]

в форуме BDRip, Размер: 2.86 ГБ, Здоровье: 100%

genn

0
1|0

37
1

05 мар 2016, 21:50

genn Перейти к последнему сообщению

В этой теме нет новых непрочитанных сообщений. Делириум, 1 сезон 1 серия / Delirium [BaibaKo] (Родриго Гарсия) [2014, фантастика, фэнтези, мелодрама, приключения, WEB-DLRip, P]

в форуме Зарубежные сериалы, Размер: 592.62 МБ, Здоровье: 0%

Russ

0
0|0

14
0

09 фев 2015, 21:51

Russ Перейти к последнему сообщению

В этой теме нет новых непрочитанных сообщений. Пассажиры / Passengers (Родриго Гарсия) [2008, триллер, мистика, драма, детектив, HDRip] MVO

в форуме Триллеры, Размер: 1.46 ГБ, Здоровье: 0%

Russ

0
0|0

50
0

18 фев 2015, 06:04

Russ Перейти к последнему сообщению

В этой теме нет новых непрочитанных сообщений. Мать и дитя / Mother and Child (Родриго Гарсия) [2009, драма, LowHDRip] MVO / Драмы

в форуме Драмы, Размер: 762.06 МБ, Здоровье: 0%

Russ

0
0|0

19
0

15 фев 2015, 20:37

Russ Перейти к последнему сообщению



Кто сейчас на конференции

Сейчас этот форум просматривают: нет зарегистрированных пользователей и гости: 1


Вы не можете начинать темы
Вы не можете отвечать на сообщения
Вы не можете редактировать свои сообщения
Вы не можете удалять свои сообщения
Вы не можете добавлять вложения

Найти:
Перейти:  


ppkBB3cker v.2

Торрент трекер, скачиваем свободно!!!

Ресурс не предоставляет электронные версии произведений, а занимается лишь коллекционированием и каталогизацией ссылок, присылаемых и публикуемых на форуме нашими читателями. Если вы являетесь правообладателем какого-либо представленного материала и не желаете чтобы ссылка на него находилась в нашем каталоге, свяжитесь с нами и мы незамедлительно удалим её. Файлы для обмена на трекере предоставлены пользователями сайта, и администрация не несёт ответственности за их содержание. Просьба не заливать файлы, защищенные авторскими правами, а также файлы нелегального содержания!
Мини навигация
Скоро в кино


dlemaster RSS канал
Яндекс.Метрика