Загрузка...



   [ 1 сообщение ] 
Статистика раздачи
Размер: 3.41 ГБ | Добавлен: 10 фев 2017, 23:52 | Скачали: 8
Сидеров: 6  [0 байт/сек]    Личеров: 0  [0 байт/сек]
<< Пред. тема След. тема >>  
Автор

СообщениеДобавлено: 10 фев 2017, 23:52 

Не в сети
Администратор
Администратор
Аватара пользователя
Пол: Не указан
Раздал: 40.9 ГБ
Скачал: 1.45 ГБ

Стаж: 5 лет 6 месяцев 8 дней
Заслуженная репутация: 30
ПользовательПользователь
Другой мир: Войны крови / Underworld: Blood Wars

«Protect the bloodline»


#77
Год выпуска
: 2016
Страна
: США
Жанр: ужасы, боевик
Продолжительность: 01:31:49
Перевод: Дублированный [Чистый звук]
Субтитры: Нет
Режиссер: Анна Ферстер
Сценарий: Кори Гудман, Кайл Уорд, Кевин Гревье
Продюсер: Дэвид Керн, Гари Лучези, Том Розенберг
Оператор: Карл Вальтер Линденлауб
Композитор: Майкл Вандмахер
Художник: Ондрей Неквасил, Брайс Тибби, Мартин Вакар
Монтаж: Питер Амундсон
В ролях: Кейт Бекинсейл / Kate Beckinsale (Selene), Тео Джеймс / Theo James (David), Тобайас Мензис / Tobias Menzies (Marius), Лара Пулвер / Lara Pulver (Semira), Чарльз Дэнс / Charles Dance (Thomas), Джеймс Фолкнер / James Faulkner (Cassius), Петер Андерссон / Peter Andersson (Vidar), Клементайн Николсон / Clementine Nicholson (Lena), Брэдли Джеймс / Bradley James (Varga), Дэйзи Хэд / Daisy Head (Alexia), Оливер Старк / Oliver Stark (Gregor), Зузана Стивинова / Zuzana Stivínová (Vampire Council #1)



Описание: Воительница-вампир Селена вступает в свой последний и решающий бой между оборотнями и кланом вампиров, который её предал.


Качество: WEB-DL 1080p
Формат: MKV
Видео кодек: AVC
Аудио кодеk: AC3
Видео: 1920x796 (2.40:1), 23.962 fps, AVC, 4 449 Kbps
Аудио: Аудио #1: AC3, 384 Kbps, 48.0 KHz, 2 ch [Rus]
Аудио #2: AC3, 384 Kbps, 48.0 KHz, 6 ch [Eng]



Код:
General
Unique ID                                : 172055596852209681205730574166914667907 (0x8170B3DE194B959682E8828758BA9583)
Complete name                            : Underworld.Blood.Wars.2017.D.1080p.WEB-DL.Rustorrents.mkv
Format                                   : Matroska
Format version                           : Version 2
File size                                : 3.41 GiB
Duration                                 : 1h 31mn
Overall bit rate                         : 5 323 Kbps
Movie name                               : Underworld.Blood.Wars.2016.1080p.WEB-DL.DD5.1.H264-FGT
Encoded date                             : UTC 2017-02-09 11:14:40
Writing application                      : mkvmerge v5.8.0 ('No Sleep / Pillow') built on Sep  2 2012 15:37:04
Writing library                          : libebml v1.2.3 + libmatroska v1.3.0
Attachment                               : Yes / Yes / Yes / Yes

Video
ID                                       : 1
Format                                   : AVC
Format/Info                              : Advanced Video Codec
Format profile                           : High@L4.0
Format settings, CABAC                   : Yes
Format settings, ReFrames                : 5 frames
Muxing mode                              : Header stripping
Codec ID                                 : V_MPEG4/ISO/AVC
Duration                                 : 1h 31mn
Bit rate                                 : 4 449 Kbps
Width                                    : 1 920 pixels
Height                                   : 796 pixels
Display aspect ratio                     : 2.40:1
Frame rate mode                          : Constant
Frame rate                               : 23.962 fps
Color space                              : YUV
Chroma subsampling                       : 4:2:0
Bit depth                                : 8 bits
Scan type                                : Progressive
Bits/(Pixel*Frame)                       : 0.121
Stream size                              : 2.85 GiB (84%)
Title                                    : Underworld.Blood.Wars.2016.1080p.WEB-DL.DD5.1.H264-FGT
Language                                 : English
Default                                  : Yes
Forced                                   : No
Color primaries                          : BT.709
Transfer characteristics                 : BT.709
Matrix coefficients                      : BT.709

Audio #1
ID                                       : 2
Format                                   : AC-3
Format/Info                              : Audio Coding 3
Mode extension                           : CM (complete main)
Format settings, Endianness              : Big
Muxing mode                              : Header stripping
Codec ID                                 : A_AC3
Duration                                 : 1h 31mn
Bit rate mode                            : Constant
Bit rate                                 : 384 Kbps
Channel(s)                               : 2 channels
Channel positions                        : Front: L R
Sampling rate                            : 48.0 KHz
Bit depth                                : 16 bits
Compression mode                         : Lossy
Stream size                              : 252 MiB (7%)
Language                                 : Russian
Default                                  : Yes
Forced                                   : Yes

Audio #2
ID                                       : 3
Format                                   : AC-3
Format/Info                              : Audio Coding 3
Mode extension                           : CM (complete main)
Format settings, Endianness              : Big
Muxing mode                              : Header stripping
Codec ID                                 : A_AC3
Duration                                 : 1h 31mn
Bit rate mode                            : Constant
Bit rate                                 : 384 Kbps
Channel(s)                               : 6 channels
Channel positions                        : Front: L C R, Side: L R, LFE
Sampling rate                            : 48.0 KHz
Bit depth                                : 16 bits
Compression mode                         : Lossy
Stream size                              : 252 MiB (7%)
Title                                    : Underworld.Blood.Wars.2016.1080p.WEB-DL.DD5.1.H264-FGT
Language                                 : English
Default                                  : No
Forced                                   : No

Menu
00:00:00.000                             : en:1
00:04:29.477                             : en:2
00:09:25.022                             : en:3
00:13:59.004                             : en:4
00:18:55.008                             : en:5
00:24:26.089                             : en:6
00:31:14.956                             : en:7
00:36:25.850                             : en:8
00:42:16.033                             : en:9
00:47:36.645                             : en:10
00:52:21.304                             : en:11
00:58:58.326                             : en:12
01:04:30.991                             : en:13
01:08:51.126                             : en:14
01:13:46.129                             : en:15
01:20:07.718                             : en:16

» Изначально предполагалось, что в этом фильме Кейт Бекинсейл сыграет роль Селены в последний раз. Однако продюсер и режиссер первых двух частей франшизы Лен Уайзман подтвердил начало разработки шестой части с участием актрисы.

» Брэдли Джеймс работал с отцом актрисы Дэйзи Хэд (исполняющей роль Алексии) Энтони Хэдом в сериале «Мерлин» (2008), где они сыграли отца и сына.

» В фильме задействованы 4 актера из вселенной «Игры престолов» (2011), а именно: Чарльз Дэнс (Томас) – Тайвин Ланнистер, Тобайас Мензис (Мариус) – Эдмур Талли, Джеймс Фолкнер – Рендилл Тарли и Лара Пулвер (Семира), озвучившая Леди Элиссу Форрестор в видеоигре Game of Thrones от компании Telltale Games по мотивам сериала.



Бюджет: $35 000 000
Сборы в США: $30 070 110
Сборы в мире: + $48 443 461 = $78 513 571
Сборы в России: $3 944 665
Зрители: Россия 919.1 тыс.
Премьера (мир): 24 ноября 2016
Премьера (РФ): 24 ноября 2016
Рейтинг MPAA: Лицам до 17 лет обязательно присутствие взрослого



Время раздачи: 24/7 (до появления первых 3-5 скачавших)


 Оценка темы: Оценок: 0, 0.00 средний балл.Оценок: 0, 0.00 средний балл.Оценок: 0, 0.00 средний балл.Оценок: 0, 0.00 средний балл.Оценок: 0, 0.00 средний балл.Оценок: 0, 0.00 средний балл.Оценок: 0, 0.00 средний балл.Оценок: 0, 0.00 средний балл.Оценок: 0, 0.00 средний балл.Оценок: 0, 0.00 средний балл. 

Торрент:  10 фев 2017, 23:52 [10 фев 2017, 23:52]
Скачать торрент

Кем проверен:
Проверен 
Размер:  3.41 ГБ
Скачиваний:  8
Здоровье: 100%
Поблагодарили:  0
Если понравилась тема «поделитесь» в соцсетях:

_________________
Голосуй за нас!


  
Ответить с цитатой  
Показать сообщения за:  Поле сортировки  
 [ 1 сообщение ] 

   Похожие торренты   Автор   Ответы   Просмотры   Последнее сообщение 
В этой теме нет новых непрочитанных сообщений. Другой мир: Войны крови / Underworld: Blood Wars (Анна Ферстер) [2016 г., Ужасы, боевик, WEB-DLRip] DUB | Чистый звук

в форуме Видео Xvid

genn

0

3

10 фев 2017, 23:52

genn Перейти к последнему сообщению

В этой теме нет новых непрочитанных сообщений. Другой мир: Войны крови / Underworld: Blood Wars (Анна Ферстер) [2016 г., Ужасы, боевик, WEB-DL 720p] DUB | Чистый звук

в форуме Видео Xvid, Размер: 3.11 ГБ, Здоровье: 100%

genn

0
2|0

11
3

10 фев 2017, 23:52

genn Перейти к последнему сообщению

В этой теме нет новых непрочитанных сообщений. Другой мир: Войны крови / Underworld: Blood Wars (Анна Ферстер) [2016 г., Ужасы, боевик, WEB-DLRip-AVC][Чистый звук][R.G. RustorRipper's]

в форуме Видео Xvid, Размер: 2.14 ГБ, Здоровье: 100%

genn

0
11|0

11
6

10 фев 2017, 23:52

genn Перейти к последнему сообщению

В этой теме нет новых непрочитанных сообщений. Другой мир: Войны крови / Underworld: Blood Wars (Анна Ферстер) [2016 г., Ужасы, боевик, WEB-DL 1080p] DUB | Звук c TS

в форуме Мусор

genn

0

3

09 фев 2017, 22:36

genn Перейти к последнему сообщению

В этой теме нет новых непрочитанных сообщений. Другой мир: Войны крови / Underworld: Blood Wars (Анна Ферстер) [2016 г., Ужасы, боевик, WEB-DL 720p] DUB | Звук c TS

в форуме Мусор

genn

0

1

09 фев 2017, 22:35

genn Перейти к последнему сообщению



Кто сейчас на конференции

Сейчас этот форум просматривают: нет зарегистрированных пользователей и гости: 3


Вы не можете начинать темы
Вы не можете отвечать на сообщения
Вы не можете редактировать свои сообщения
Вы не можете удалять свои сообщения
Вы не можете добавлять вложения

Найти:
Перейти:  


ppkBB3cker v.2

Торрент трекер, скачиваем свободно!!!

Ресурс не предоставляет электронные версии произведений, а занимается лишь коллекционированием и каталогизацией ссылок, присылаемых и публикуемых на форуме нашими читателями. Если вы являетесь правообладателем какого-либо представленного материала и не желаете чтобы ссылка на него находилась в нашем каталоге, свяжитесь с нами и мы незамедлительно удалим её. Файлы для обмена на трекере предоставлены пользователями сайта, и администрация не несёт ответственности за их содержание. Просьба не заливать файлы, защищенные авторскими правами, а также файлы нелегального содержания!
Мини навигация
Скоро в кино


dlemaster RSS канал
Яндекс.Метрика